<?xml version="1.0" standalone="no"?>
<!DOCTYPE svg PUBLIC "-//W3C//DTD SVG 1.1//EN" "http://www.w3.org/Graphics/SVG/1.1/DTD/svg11.dtd" >
<!--
2013-9-30: Created.
-->
<svg>
<metadata>
Created by iconfont
</metadata>
<defs>

<font id="iconfont" horiz-adv-x="1024" >
  <font-face
    font-family="iconfont"
    font-weight="500"
    font-stretch="normal"
    units-per-em="1024"
    ascent="896"
    descent="-128"
  />
    <missing-glyph />
    
    <glyph glyph-name="luntan-off" unicode="&#58890;" d="M381.3275 424.8075H169.7c-59.295 0-92.535 33.24-92.535 92.535V728.9625c0 59.295 48.24 92.535 107.535 92.535h196.62c59.295 0 92.535-33.24 92.535-92.535v-211.62c0.0075-59.295-33.24-92.535-92.5275-92.535zM169.7 780.2475a51.345 51.345 0 0 1-51.285-51.285v-211.62a51.3375 51.3375 0 0 1 51.285-51.285h211.62a51.345 51.345 0 0 1 51.285 51.285V728.9625a51.3375 51.3375 0 0 1-51.285 51.285H169.7zM858.815 424.8075H647.2025c-59.295 0-92.5425 33.24-92.5425 92.535V728.9625c0 59.295 33.2475 92.535 92.5425 92.535h211.6125c59.295 0 92.5425-33.24 92.5425-92.535v-211.62c0-59.295-33.2475-92.535-92.5425-92.535zM647.2025 780.2475a51.3525 51.3525 0 0 1-51.2925-51.285v-211.62a51.3375 51.3375 0 0 1 51.2925-51.285h211.6125a51.3525 51.3525 0 0 1 51.2925 51.285V728.9625a51.3375 51.3375 0 0 1-51.2925 51.285H647.2025zM381.3275-52.27499999999998H169.7c-59.295 0-92.535 33.24-92.535 92.535V251.88c0 59.2875 33.24 92.535 92.535 92.535h211.62c59.295 0 92.535-33.2475 92.535-92.535v-211.62c0.0075-59.295-33.24-92.535-92.5275-92.535zM169.7 303.16499999999996a51.3375 51.3375 0 0 1-51.285-51.285v-211.62a51.345 51.345 0 0 1 51.285-51.2925h211.62a51.3375 51.3375 0 0 1 51.285 51.2925V251.88a51.3375 51.3375 0 0 1-51.285 51.285M858.815-52.27499999999998H647.2025c-59.295 0-92.5425 33.24-92.5425 92.535V251.88c0 59.2875 33.2475 92.535 92.5425 92.535h211.6125c59.295 0 92.5425-33.2475 92.5425-92.535v-211.62c0-59.295-33.2475-92.535-92.5425-92.535zM647.2025 303.16499999999996a51.345 51.345 0 0 1-51.2925-51.2925v-211.6125a51.345 51.345 0 0 1 51.2925-51.2925h211.6125a51.345 51.345 0 0 1 51.2925 51.2925V251.88a51.3375 51.3375 0 0 1-51.2925 51.285"  horiz-adv-x="1024" />

    
    <glyph glyph-name="shoucang" unicode="&#59310;" d="M263.64767893-62.91683839999996c-17.20900907 0-29.1644992 5.54277227-36.89032533 11.22198507-16.21899413 11.92165333-24.9512064 31.70557333-26.008896 58.77215893-2.93402347 75.9298656-5.28735467 202.03502613-5.764352 233.05839573-17.44696107 25.429296-87.8002176 128.27184107-128.52725867 191.85326614-12.7916 19.8690592-16.33906133 42.87625707-9.78990186 63.12080106 6.51532267 19.93782507 22.17218027 35.5259168 44.17299093 43.985248 70.0792832 26.77623893 186.8387936 68.9364544 215.38876373 79.23828267 18.82883413 24.84969493 97.47005227 128.44211947 144.09897707 187.5035328 12.55255573 15.92973973 31.2274848 25.07127467 51.2166112 25.07127467 0.10260373 0 0.1702784 0 0.2903456 0 20.9944224-0.13644053 41.2389664-10.07915627 54.1331712-26.69109974 45.99802347-59.1301792 122.30228267-161.17045333 140.7894688-185.96884693 28.7890144-10.38696747 146.70772587-53.22938667 216.22487253-79.95432427 29.11319787-11.20561173 40.4039488-29.65896107 44.7351264-43.2692064 5.83311787-18.36821013 2.6611424-38.91947307-8.73221333-56.46903786-41.15382827-63.03566187-113.637744-172.44373973-130.74414933-198.31728747l-3.51362454-141.21625493c-0.27288213-12.7916-11.47849387-22.37629547-23.55296106-22.5978752-12.6715328 0.30671893-22.66664213 10.91526613-22.37629547 23.7745408l3.65006507 147.95315733c0.10260373 4.39994347 1.44954773 8.69837547 3.88910933 12.36481387 0 0 87.40726827 131.83567573 134.27523733 203.56971306 3.63260053 5.62791147 4.94570667 11.85288747 3.37718294 16.64578134-2.28565653 7.027248-10.67622187 11.59746987-17.32798507 14.15600853-78.82896 30.28986347-220.40323627 81.45517333-221.83531947 81.983472-4.22966613 1.53468693-7.89610347 4.26350293-10.6085472 7.87973013-0.90378453 1.2618048-92.25146347 123.80313173-144.38823146 190.81304107-4.2122016 5.4237952-11.20561173 8.81735147-18.1804672 8.86865387-3.8716448 0.05130133-10.42080427-1.2618048-15.43527787-7.60684907-52.6148576-66.6682624-146.69135253-190.94948267-147.62897387-192.15998507-2.728816-3.6162272-6.41271893-6.25881387-10.57470933-7.794592-1.38187307-0.49446187-141.5404384-50.8924288-220.8802336-81.2335936-6.224976-2.3194944-14.17238187-6.83950613-16.76475733-15.04232853-2.2343552-6.75436693-0.5119264-15.29883733 4.65645226-23.36521813 46.134464-71.98945493 130.8129152-195.11038187 131.63156054-196.35581334 2.62621333-3.80287893 4.05938773-8.2890528 4.1270624-12.89420373 0.05130133-1.5183136 2.54107413-152.98400427 5.88442026-239.1130944 0.49446187-11.6149344 3.10430187-19.9891264 7.21389974-23.07596373 4.298432-3.10430187 13.3373632-3.10430187 24.72962666 0.0851392 81.864496 22.9395232 224.44515947 66.4641472 225.8434048 66.85600533 4.3835712 1.346944 9.10769813 1.39824533 13.49017707 0 1.46701227-0.49446187 144.81501867-45.6225376 225.43408213-68.33938987 12.22837227-3.4448576 19.4084352-16.2026208 16.01487894-28.56743466-3.4448576-12.34844053-16.168784-19.56234027-28.34585494-16.15131947-71.1708096 20.00549973-190.54016 57.30514667-220.045216 66.5492864-29.40354347-8.9712576-148.05576107-44.92286933-220.09651733-65.116112C280.61764267-61.757637329999966 271.56124693-62.91683839999996 263.64767893-62.91683839999996L263.64767893-62.91683839999996z"  horiz-adv-x="1024" />

    
    <glyph glyph-name="fanhui2" unicode="&#58945;" d="M837.87405458 567.3796687500001c-64.47212812 64.2581925-150.18329531 99.64476094-241.34452875 99.64476094L209.05879114 667.02442969 314.83091802 772.79847469 283.75374833 803.87564437 124.93150958 645.04764937 283.75374833 486.22061437l31.07716969 31.07716969L209.05879114 623.07662625l387.46977563 0c79.45045219 0 154.14540938-30.83541375 210.3201225-86.82113531 56.15744531-55.96941281 87.08303813-130.37752406 87.08303812-209.51714719l0-21.95087719c0-79.14154219-30.92559281-153.54773437-87.08303812-209.51714718-56.17471312-55.99051875-130.86391406-86.82209438-210.3201225-86.82209438L156.00867927 8.44822406000003l0-43.94780343 440.5198875 0c91.1612325 0 176.87240063 35.38848656 241.34452875 99.64092375 64.48843687 64.27833938 100.00547625 149.73623906 100.00547625 240.64708125l0 21.95087718C937.87953083 417.64342969 902.36249145 503.10708562 837.87405458 567.3796687500001L837.87405458 567.3796687500001zM837.87405458 567.3796687500001"  horiz-adv-x="1024" />

    
    <glyph glyph-name="tixing" unicode="&#59084;" d="M925.007405 189.50633100000005c-9.007141 8.121981-23.219841 18.370393-42.24310301 30.456662-5.865591 3.72585799-9.31822599 10.111289-9.238408 17.07898l0.03172201 2.539846c0.60989001 51.78134 1.529843 130.034589-12.19167001 209.543434-16.686031 96.679923-51.42216 172.286901-103.24238599 224.720088-40.829917 41.314964-92.43422599 68.674079-154.064888 81.818447-3.056616 19.09489399-12.19781001 36.341696-26.51693401 49.569976-17.13526201 15.8285-40.165792 24.54604601-64.84691399 24.54604599-24.679076 0-47.709605-8.718569-64.844867-24.54604599-14.31502999-13.222139-23.455201-30.46382601-26.51488701-49.552579-61.343113-13.07068999-112.58107801-40.223097-152.97302-81.20446301-117.15014-118.866225-114.199948-322.05083401-112.61484699-431.20792899l0.085958-5.973038c0.099261-6.963599-3.508917-13.56597001-9.41748701-17.23145301-19.403932-12.03817399-33.983999-22.151509-43.33497099-30.05654999-24.833595-20.99415001-39.07699399-51.64830999-39.076994-84.102467 0-28.354791 23.067368-51.42216 51.42216-51.42216l277.239232 0c0.54030599-65.73412 54.174853-119.045303 120.032794-119.04530301s119.492488 53.31220599 120.032794 119.04530301l275.389094 0c29.375028 0 53.272297 23.898293 53.272297 53.27229699C961.39003401 138.85778999000001 948.130032 168.65441999999996 925.007405 189.50633100000005zM512.69380201 789.764444c14.58722999 0 27.97309801-4.945639 37.69450699-13.925151 4.253884-3.929496 7.62465401-8.43920601 10.070356-13.418614-15.392572 1.550309-31.31316999 2.334161-47.76384 2.334161-16.395412 0-32.25665801-0.77566601-47.586808-2.308579C473.31902601 778.89386201 491.085668 789.764444 512.69380201 789.764444zM512.695848-24.54579001000002c-43.792389 0-79.464843 35.363416-80.005149 79.02993801l160.010297 0C592.160691 10.816601989999981 556.488237-24.54579001000002 512.695848-24.54579001000002zM908.117736 94.49951299999998L115.422799 94.49951299999998c-6.28924 0-11.40679401 5.11755401-11.406794 11.406794 0 20.65236599 9.073656 40.169885 24.89601699 53.543474 7.752568 6.553253 21.099551 15.75584601 38.59911001 26.614148 17.77278199 11.026124 28.62801399 30.875195 28.331255 51.798736l-0.085958 5.98634099c-1.500167 103.30685401-4.29276999 295.599392 101.104699 402.53795901 51.240011 51.990095 123.857912 78.352509 215.832673 78.35250899 92.148723 0 165.14729399-26.58651801 216.96752-79.02277499 45.958728-46.502104 77.003791-114.936729 92.27152-203.39848 13.098319-75.89657399 12.20395001-151.94459801 11.611455-202.266703l-0.029676-2.541893c-0.246617-20.922519 10.143011-40.107463 27.78788-51.321876 16.656355-10.584056 29.764907-19.958564 36.906561-26.39823 14.72230599-13.276375 23.16560599-32.242332 23.165606-52.033074C921.375691 100.44696899999997 915.427212 94.49951299999998 908.117736 94.49951299999998zM450.672236 682.7235450000001c-24.200168 0-58.36222201-22.532179-82.263585-43.620473-19.80813801-17.477047-54.381561-53.168943-63.362096-95.835695-2.275833-10.812253 4.644787-21.423939 15.45704-23.698748 1.38965001-0.29266601 2.774183-0.43388201 4.140297-0.433882 9.260921 0 17.575284 6.467295 19.558451 15.890922 4.823865 22.91080201 23.29556601 49.909713 50.681286 74.070996 26.590612 23.462365 49.811476 33.610492 55.788607 33.610492 11.048637 0 20.007683 8.95802199 20.007683 20.007683C470.679919 673.765523 461.720873 682.7235450000001 450.672236 682.7235450000001z"  horiz-adv-x="1024" />

    
    <glyph glyph-name="tuichu" unicode="&#58958;" d="M681.37721211 19.444768650000015L164.99052266 19.444768650000015c-34.54647714 0-62.65242158 28.10234619-62.65242159 62.64432685L102.33810107 685.52416641c0 34.54557803 28.10594443 62.64882422 62.65242159 62.64882421l512.83319941 0c10.84934443 0.00899385 19.67505996 8.8922707 19.67505996 19.80097471 0 9.50295674-6.89202685 17.7791458-16.12156992 19.47629532L164.99052266 787.45026065c-56.20469326 0-101.93059073-45.72409922-101.93059073-101.92609424L63.05993106 82.08909550999999c0-56.19929678 45.72589747-101.92069776 101.93059071-101.92069775L677.80663349-19.831602240000052c10.85833828 0 19.69214854 8.88327685 19.69214854 19.80187471C697.49878203 9.472330080000006 690.6067543 17.747619139999983 681.37721211 19.444768650000015zM953.78721787 399.63140215L833.14481415 520.7127087900001l-0.01079296-0.01259121-20.28394775 20.35589854-22.75637081 22.78245321c-3.70728633 3.71268281-8.64403945 5.75609766-13.90097548 5.75609766-5.28841406 0-10.26833818-2.06589902-14.02329199-5.81725547-7.13306338-7.12317041-7.82649404-18.29899337-1.67556358-26.13897774l34.94670644-35.07262118 0.00989297 0.01079297 98.18283164-98.53988994L504.47345293 404.03661474c-10.85743828 0-19.69124941-8.88147862-19.69124941-19.80007558 0-10.91769786 8.83291113-19.80007558 19.69124941-19.80007559l389.16074882 0-89.10888397-89.4353625-5.64996973-5.55373476L757.27045654 227.69137763000003c-4.10391738-8.16466465-2.82948135-17.59207237 3.30256055-23.73310898 3.65512148-3.66051797 8.61256055-5.67785039 13.9567377-5.67785039 5.8748168 0 11.47981641 2.36719511 15.78249931 6.6617833l10.9266917 10.91230136 29.97307793 30.08370323 5.65266709 5.55553301 116.91892881 117.34254141c3.86018261 3.87907031 5.82625019 9.21065537 5.53754531 15.01172226l-0.01978681 0.3876372 0.01978681 0.38763721C959.6098707 390.44323183 957.64919961 395.76942041 953.78721787 399.63140215z"  horiz-adv-x="1024" />

    
    <glyph glyph-name="daohang" unicode="&#58940;" d="M103.0056024 447.42324195l809.79151955 0c15.15254094 0 27.32425338 12.17171244 27.32425338 27.32425338s-12.17171244 27.32425338-27.32425338 27.32425338L103.0056024 502.07174992c-15.15254094 0-27.32425338-12.17171244-27.32425338-27.32425337S87.85306146 447.42324195 103.0056024 447.42324195zM101.76359083 228.82921254999997l809.79151955 0c15.15254094 0 27.32425338 12.17171244 27.32425337 27.32425336s-12.17171244 27.32425338-27.32425337 27.32425338L101.76359083 283.47772050000003c-15.15254094 0-27.32425338-12.17171244-27.32425338-27.32425337S86.61104989 228.82921254999997 101.76359083 228.82921254999997zM912.79712195 69.85173615999997L103.0056024 69.85173615999997c-15.15254094 0-27.32425338-12.17171244-27.32425338-27.32425337s12.17171244-27.32425338 27.32425338-27.32425338l809.79151955 0c15.15254094 0 27.32425338 12.17171244 27.32425338 27.32425338S927.94966289 69.85173615999997 912.79712195 69.85173615999997z"  horiz-adv-x="1024" />

    
    <glyph glyph-name="zhuti" unicode="&#58981;" d="M726.016 311.9104c0 0.2048-0.2048 0.4096-0.4096 0.4096L299.4176 312.32000000000005c-0.2048 0-0.4096-0.2048-0.4096-0.4096l0-42.1888c0-0.2048 0.2048-0.4096 0.4096-0.4096l426.1888 0c0.2048 0 0.4096 0.2048 0.4096 0.4096L726.016 311.9104zM555.008 199.2704c0 0.2048-0.2048 0.4096-0.4096 0.4096L299.4176 199.67999999999995c-0.2048 0-0.4096-0.2048-0.4096-0.4096l0-42.1888c0-0.2048 0.2048-0.4096 0.4096-0.4096l255.1808 0c0.2048 0 0.4096 0.2048 0.4096 0.4096L555.008 199.2704zM726.016 423.5264c0 0.2048-0.2048 0.4096-0.4096 0.4096L299.4176 423.936c-0.2048 0-0.4096-0.2048-0.4096-0.4096l0-42.1888c0-0.2048 0.2048-0.4096 0.4096-0.4096l426.1888 0c0.2048 0 0.4096 0.2048 0.4096 0.4096L726.016 423.5264zM726.016 609.8944c0 0.2048-0.2048 0.4096-0.4096 0.4096L299.4176 610.304c-0.2048 0-0.4096-0.2048-0.4096-0.4096l0-42.1888c0-0.2048 0.2048-0.4096 0.4096-0.4096l426.1888 0c0.2048 0 0.4096 0.2048 0.4096 0.4096L726.016 609.8944zM789.2992 832.512l-268.288 0-60.8256 0L234.7008 832.512C175.8208 832.512 128 783.1552 128 723.0464l0-678.0928c0-60.1088 47.8208-108.4416 106.7008-108.4416l554.7008 0c58.7776 0 106.7008 48.4352 106.7008 108.4416L896.1024 723.0464C896 783.1552 848.1792 832.512 789.2992 832.512zM852.992 44.95360000000005c0-36.0448-28.3648-65.4336-63.6928-65.4336L234.7008-20.480000000000018c-35.328 0-63.6928 29.3888-63.6928 65.4336L171.008 723.0464c0 36.0448 28.3648 65.4336 63.6928 65.4336l230.2976 0 51.4048 0 272.9984 0c35.328 0 63.6928-29.3888 63.6928-65.4336L853.0944 44.95360000000005z"  horiz-adv-x="1024" />

    
    <glyph glyph-name="wode-on" unicode="&#59552;" d="M746.656 566.848c0-147.568-104.464-268.192-234.656-268.192-130.176 0-234.672 120.624-234.672 268.192 0 147.616 104.48 243.824 234.672 243.824s234.656-96.224 234.656-243.824zM512.112 256c408.96 0 404.864-256.512 404.864-256.512 3.088-23.264-13.488-42.144-37.088-42.144H144.32c-23.568 0-41.088 19.12-37.072 42.144 0 0-4.096 256.512 404.864 256.512z"  horiz-adv-x="1024" />

    
    <glyph glyph-name="denglu" unicode="&#58959;" d="M604.96402987 337.63934827a255.8331264 255.8331264 0 1 1-185.68533334 0 388.3614816 388.3614816 0 0 1-296.12562986-376.9533632 24.27259307 24.27259307 0 0 1 48.54518506 0 339.81629653 339.81629653 0 0 0 679.63259307 0 24.27259307 24.27259307 0 0 1 48.54518507 0 388.3614816 388.3614816 0 0 1-294.912 376.9533632zM305.6829632 575.7534816a207.28794027 207.28794027 0 1 0 207.28794027-207.28794133A207.53066667 207.53066667 0 0 0 305.6829632 575.7534816zM666.85914027 575.7534816a24.27259307 24.27259307 0 0 1-48.54518507 0 106.3139552 106.3139552 0 0 0-212.6279104 0 24.27259307 24.27259307 0 0 1-48.54518507 0 154.85914027 154.85914027 0 0 1 309.71828054 0z"  horiz-adv-x="1024" />

    
    <glyph glyph-name="sousuo" unicode="&#58906;" d="M302.00000029 670.875c-11.25-3.75000029-20.62500029-9.37500029-30.00000058-16.875-9.37500029-5.625-18.74999971-13.12499971-26.24999942-20.62500029-7.49999971-7.49999971-15.00000029-16.875-20.62500029-26.24999942-5.625-9.37500029-11.25-18.74999971-16.875-30.00000058-3.75000029-7.49999971 0-16.875 7.49999971-18.74999971 7.49999971-3.75000029 16.875 0 18.75000058 7.49999971 3.75000029 9.37500029 7.49999971 16.875 13.12499971 24.37500058 5.625 7.49999971 11.25 15.00000029 16.87499999 20.62499942 7.49999971 7.49999971 13.12499971 13.12499971 22.50000001 18.75000058 7.49999971 5.625 16.875 9.37500029 24.37499971 13.12499971 7.49999971 3.75000029 11.25 11.25 7.50000058 18.74999971 0 7.49999971-9.37500029 11.25-16.875 9.37500029zM699.49999971 393.37500029c-7.49999971 0-15.00000029-7.49999971-14.99999942-15.00000029 0-18.74999971-3.75000029-37.50000029-11.25-56.25-7.49999971-16.875-16.875-31.87500029-31.87500029-46.87499971-13.12499971-15.00000029-29.99999971-24.37499971-46.87499971-31.87500029-16.875-7.49999971-35.62499971-11.25-56.25-11.25-7.49999971 0-15.00000029-7.49999971-15.00000029-15.00000029s5.625-15.00000029 15.00000029-14.99999942c22.50000001 0 45 3.75000029 67.5 13.12499971 20.62500029 9.37500029 39.375 20.62500029 56.25 37.50000029 16.875 16.875 29.99999971 35.62499971 37.49999942 56.25 9.37500029 20.62500029 13.12499971 45 13.12500058 67.5 1.87499971 9.37500029-5.625 16.875-13.12500058 16.875zM451.99999971 820.87500029c-206.25000029 0-375.00000029-168.75-374.99999942-375.00000029s168.75-375.00000029 374.99999942-375.00000029 375.00000029 168.75 375.00000029 375.00000029c0 208.125-168.75 375.00000029-375.00000029 375.00000029z m0-710.62500058c-185.625 0-335.62500029 150.00000029-335.62499942 335.62500029 0 185.625 150.00000029 335.62500029 335.62499942 335.62500029 185.625 0 335.62500029-150.00000029 335.62500029-335.62500029 0-183.75000029-150.00000029-335.62500029-335.62500029-335.62500029z m478.125-65.62499942l-104.99999942 108.74999971c-11.25 11.25-24.37499971 16.875-39.375 16.875s-28.125-5.625-39.375-16.875c-22.50000001-22.50000001-22.50000001-58.12499971 0-80.62499971l104.99999942-108.75000058c11.25-11.25 24.37499971-16.875 39.375-16.875s28.125 5.625 39.375 16.875c22.50000001 22.50000001 22.50000001 58.12499971 0 80.62500058zM905.75-9.75c-5.625-5.625-9.37500029-5.625-13.12499971-5.625s-7.49999971 0-13.12500058 5.625L774.50000029 98.99999971c-7.49999971 7.49999971-7.49999971 20.62500029 0 26.25000029 5.625 5.625 9.37500029 5.625 13.12499971 5.625 3.75000029 0 7.49999971 0 13.12499971-5.625l105.00000029-108.74999971c5.625-5.625 5.625-11.25 5.625-13.12500058-1.87499971-1.87499971-1.87499971-7.49999971-5.625-13.12499971z"  horiz-adv-x="1024" />

    
    <glyph glyph-name="diannao" unicode="&#58944;" d="M912.00000031 103.99999968999998H531.99999969v-79.99999969h200.00000062c12 0 19.99999969-7.99999969 19.99999969-19.99999969s-7.99999969-19.99999969-19.99999969-20.00000062H291.99999969c-12 0-19.99999969 7.99999969-19.99999969 20.00000062s7.99999969 19.99999969 19.99999969 19.99999969h200.00000062v79.99999969H111.99999969c-34.00000031 0-60 25.99999969-60 60V724.00000031c0 34.00000031 25.99999969 60 60 60h800.00000062c34.00000031 0 60-25.99999969 60-60v-560.00000062c0-34.00000031-25.99999969-60-60-60z m19.99999969 620.00000062c0 12-7.99999969 19.99999969-19.99999969 19.99999969H111.99999969c-12 0-19.99999969-7.99999969-19.99999969-19.99999969v-480h840V724.00000031z m0-520.00000031H92v-40.00000031c0-12 7.99999969-19.99999969 19.99999969-19.99999969h800.00000062c12 0 19.99999969 7.99999969 19.99999969 19.99999969v40.00000031z"  horiz-adv-x="1024" />

    
    <glyph glyph-name="fatie-off" unicode="&#59024;" d="M737 402.74999971H530.74999971V609c0 11.25-7.49999971 18.74999971-18.74999971 18.74999971s-18.74999971-7.49999971-18.74999971-18.74999971v-206.25000029H287c-11.25 0-18.74999971-7.49999971-18.74999971-18.74999971s7.49999971-18.74999971 18.74999971-18.74999971h206.25000029v-206.25000029c0-11.25 7.49999971-18.74999971 18.74999971-18.74999971s18.74999971 7.49999971 18.74999971 18.74999971V365.25000029h206.25000029c11.25 0 18.74999971 7.49999971 18.74999971 18.74999971s-7.49999971 18.74999971-18.74999971 18.74999971zM512 834C262.62500029 834 62 633.37499971 62 384s200.62500029-450 450-450 450 200.62500029 450 450S761.37499971 834 512 834z m0-862.49999971C285.12500029-28.499999709999997 99.50000029 157.12500029 99.50000029 384S285.12500029 796.49999971 512 796.49999971s412.49999971-185.625 412.49999971-412.49999971-185.625-412.49999971-412.49999971-412.49999971z"  horiz-adv-x="1024" />

    
    <glyph glyph-name="fatie-on" unicode="&#59025;" d="M512 834C262.62500029 834 62 633.37499971 62 384s200.62500029-450 450-450 450 200.62500029 450 450S761.37499971 834 512 834z m225-468.74999971H530.74999971v-206.25000029c0-11.25-7.49999971-18.74999971-18.74999971-18.74999971s-18.74999971 7.49999971-18.74999971 18.74999971V365.25000029H287c-11.25 0-18.74999971 7.49999971-18.74999971 18.74999971s7.49999971 18.74999971 18.74999971 18.74999971h206.25000029V609c0 11.25 7.49999971 18.74999971 18.74999971 18.74999971s18.74999971-7.49999971 18.74999971-18.74999971v-206.25000029h206.25000029c11.25 0 18.74999971-7.49999971 18.74999971-18.74999971s-7.49999971-18.74999971-18.74999971-18.74999971z"  horiz-adv-x="1024" />

    
    <glyph glyph-name="top" unicode="&#58934;" d="M926.03131238-46.534421130000055c-6.33345658 0-12.51962347 2.50392469-17.23289347 7.36448439L550.44260851 336.71334650999995c-10.16298847 10.60485751-23.86092942 16.49644503-38.44260851 16.49644503-14.72896878 0-28.42690974-5.89158752-38.44260851-16.49644503L115.05429141-39.169936740000026c-8.98467097-9.42654002-24.00821911-9.86840908-33.58204884-0.73644843s-9.86840908 24.00821911-0.73644842 33.58204882l358.35581038 375.88328324c19.14765941 20.17868721 45.07064446 31.22541381 72.90839547 31.2254138s53.61344636-11.04672658 72.90839547-31.2254138L943.26420585-6.324336349999953c8.98467097-9.42654002 8.69009158-24.45008817-0.73644842-33.58204882-4.71327001-4.41869063-10.60485751-6.62803595-16.49644505-6.62803596zM926.03131238 477.66957772H97.96868762c-13.10878221 0-23.71363973 10.60485751-23.71363973 23.71363975s10.60485751 23.71363973 23.71363973 23.71363972h828.06262476c13.10878221 0 23.71363973-10.60485751 23.71363973-23.71363972s-10.60485751-23.71363973-23.71363973-23.71363975z"  horiz-adv-x="1024" />

    
    <glyph glyph-name="wode" unicode="&#58894;" d="M512 243.20000000000005c-160 0-294.4 134.4-294.4 294.4S352 832 512 832s294.4-134.4 294.4-294.4-134.4-294.4-294.4-294.4z m0 550.4c-140.8 0-256-115.2-256-256s115.2-256 256-256 256 115.2 256 256-115.2 256-256 256zM940.8-70.39999999999998c-6.4 0-19.2 6.4-19.2 19.2-25.6 166.4-204.8 288-409.6 288s-377.6-121.6-409.6-288c0-12.8-12.8-19.2-19.2-12.8-12.8 0-19.2 12.8-19.2 19.2 32 179.2 224 320 448 320s416-140.8 448-320c0-12.8-6.4-25.6-19.2-25.6zM512 352c-76.8 0-140.8 44.8-160 115.2-6.4 12.8 0 19.2 12.8 25.6 12.8 0 19.2 0 25.6-12.8 19.2-57.6 70.4-89.6 128-89.6 57.6 0 108.8 38.4 128 89.6 6.4 12.8 12.8 12.8 25.6 12.8 12.8-6.4 12.8-12.8 12.8-25.6-32-70.4-102.4-115.2-172.8-115.2z"  horiz-adv-x="1024" />

    
    <glyph glyph-name="zhuce" unicode="&#58892;" d="M655.58755555 353.28c-128.79644445 0-233.58577778 104.90311111-233.58577777 233.81333333S526.67733333 820.90666667 655.58755555 820.90666667s233.58577778-104.90311111 233.58577778-233.81333334S784.384 353.28 655.58755555 353.28z m0 410.73777778c-97.50755555 0-176.69688889-79.41688889-176.69688888-176.92444445S558.19377778 410.16888889 655.58755555 410.16888889s176.69688889 79.41688889 176.6968889 176.92444444S752.98133333 764.01777778 655.58755555 764.01777778zM289.33688889-50.85866667000005h-56.88888889c0 61.89511111 11.03644445 121.96977778 32.88177778 178.51733334 21.16266667 54.84088889 51.42755555 103.99288889 90.112 146.31822222 38.79822222 42.55288889 84.08177778 75.88977778 134.48533333 99.328 52.45155555 24.34844445 108.08888889 36.63644445 165.54666667 36.63644444v-56.88888888c-97.28 0-188.98488889-41.64266667-258.048-117.41866667-69.632-76.34488889-108.08888889-178.176-108.08888889-286.49244445zM399.58755555 355.66933333c-45.056 9.216-86.12977778 34.01955555-115.59822222 69.632-29.80977778 36.18133333-46.30755555 82.03377778-46.30755555 129.024 0 46.99022222 16.384 92.84266667 46.30755555 129.024 29.46844445 35.72622222 70.42844445 60.416 115.48444445 69.632l11.37777777-55.75111111C343.60888889 683.46311111 294.68444445 623.38844445 294.68444445 554.3253333299999c0-69.06311111 48.92444445-129.13777778 116.39466666-142.90488888l-11.49155556-55.75111112zM411.07911111 697.23022222l-11.37777778 55.75111111c13.312 2.73066667 27.07911111 4.096 40.84622222 4.096v-56.88888888c-10.01244445 0-19.91111111-0.91022222-29.46844444-2.95822223zM133.91644445 12.85688889000005h-56.8888889c0 106.83733333 31.97155555 205.824 89.99822223 278.75555556 29.92355555 37.54666667 65.64977778 67.01511111 106.15466667 87.38133333C315.73333333 400.49777778 362.496 411.30666667 411.87555555 411.30666667v-56.88888889c-40.50488889 0-78.50666667-8.87466667-113.0951111-26.28266667-33.10933333-16.72533333-62.464-40.96-87.26755556-72.02133333-50.06222222-62.80533333-77.59644445-149.27644445-77.59644444-243.25688889zM609.84888889 146.20444444999998h339.17155556v-56.8888889H609.84888889zM750.97088-51.81439999999998v339.17155555h56.88888889v-339.17155555z"  horiz-adv-x="1024" />

    
    <glyph glyph-name="fatie" unicode="&#58918;" d="M899.42933333 413.33333333c-16.488 0-18.096-13.36-18.096-29.84v-356.624c0-14-15.264-29.528-29.392-29.528H155.04533333c-14.128 0-29.712 15.6-29.712 29.712V725.33333333c0 14.2 9.768 28 24 28h354.16c16.48 0 29.84 3.52 29.84 20s-13.36 19.936-29.84 19.936H157.33333333c-47.2 0-71.616-28.784-71.616-75.936v-682.288c0-47.056 30.224-77.328 77.328-77.328h680.896c47.032 0 77.328 30.128 77.328 77.152V383.49333333000004c0 16.48-5.36 29.84-21.84 29.84zM951.87733333 823.9013333299999c-38.72 38.72-101.64 38.736-140.392-0.016L311.90133333 324.30133333000003l-3.16-3.16-1.704-4.128-56.256-136.12c-16.928-40.96 11.808-70.76 53.256-55.104l140.32 53.016 4.504 1.704 3.408 3.408 507.584 507.584c38.784 38.792 30.792 93.64-7.976 132.4zM418.13333333 205.33333332999996l-139.36-51.176 51.936 133.648 2.656 2.656 67.968-69.072L418.13333333 205.33333332999996z m23.952 23.704L357.01333333 314.11733332999995l390.44 390.432 85.072-85.072-390.44-390.44zM929.33333333 717.33333333l-65.16-72L773.33333333 734.93333333l61.808 60.8c21.272 21.264 68.952 22.84 90.192 1.6 21.288-21.288 25.296-58.704 4-80z"  horiz-adv-x="1024" />

    
    <glyph glyph-name="xiaoxi" unicode="&#58964;" d="M533.33333333 814.545455c-256 0-465.454545-176.872727-465.454545-395.636364 0-51.2 11.636364-102.4 34.90909-151.272727 4.654545-11.636364 18.61818201-16.290909 30.254546-11.636364 11.636364 4.654545 16.290909 18.61818201 11.636364 30.254545-20.945455 44.21818201-30.254545 88.436364-30.254546 132.654546 0 193.163636 188.509091 349.090909 418.909091 349.090909s418.909091-155.927273 418.909091-349.090909-188.509091-349.090909-418.909091-349.09090901c-44.21818201 0-86.109091 4.654545-128 16.29090901-4.654545 2.327273-9.309091 0-13.963636 0L191.22424233 11.636363999999958l27.927273 162.909091c2.327273 11.636364-6.98181799 25.6-18.618182 27.927272-11.636364 2.327273-25.6-6.98181799-27.927273-18.618182L137.69696933-18.61818199000004c0-9.309091 2.327273-16.290909 9.309091-23.27272701 4.654545-4.654545 9.309091-4.654545 13.963637-4.654546 2.327273 0 4.654545 0 6.981818 2.32727299l230.4 83.78181801c44.21818201-11.636364 88.436364-16.290909 132.654545-16.290909 256 0 465.454545 176.872727 465.454546 395.636364 2.327273 218.763636-207.127273 395.636364-463.127273 395.636364zM624.09696933 407.272727c0 48.872727-39.563636 86.109091-86.109091 86.10909101-48.872727 0-86.109091-39.563636-86.10909-86.10909101 0-48.872727 39.563636-86.109091 86.10909-86.109091 48.872727 0 86.109091 37.236364 86.109091 86.109091z m-125.672727 0c0 23.272727 18.61818201 39.563636 39.563636 39.563637s39.563636-18.61818201 39.563637-39.563637c0-23.272727-18.61818201-39.563636-39.563637-39.563636s-39.563636 16.290909-39.563636 39.563636zM835.87878833 407.272727c0 48.872727-39.563636 86.109091-86.109091 86.10909101S663.66060633 453.81818199 663.66060633 407.272727c0-48.872727 39.563636-86.109091 86.109091-86.109091S835.87878833 358.4 835.87878833 407.272727z m-128 0c0 23.272727 18.61818201 39.563636 39.563636 39.563637S789.33333333 430.545455 789.33333333 407.272727s-18.61818201-39.563636-39.563636-39.563636-41.890909 16.290909-41.890909 39.563636zM414.64242433 407.272727c0 48.872727-39.563636 86.109091-86.109091 86.10909101S240.09696933 456.145455 240.09696933 407.272727s39.563636-86.109091 86.109091-86.109091 88.436364 37.236364 88.436364 86.109091z m-128 0c0 23.272727 18.61818201 39.563636 39.563636 39.563637s39.563636-18.61818201 39.563637-39.563637c0-23.272727-18.61818201-39.563636-39.563637-39.563636s-39.563636 16.290909-39.563636 39.563636z"  horiz-adv-x="1063" />

    
    <glyph glyph-name="sousuo-off" unicode="&#58903;" d="M411.99999969 184.00000031000002a300 300 0 1 1 0 600 300 300 0 0 1 0-600z m0-40.00000031a340.00000031 340.00000031 0 1 0 0 679.99999969 340.00000031 340.00000031 0 0 0 0-679.99999969zM716.84 179.15999999999997a40.00000031 40.00000031 0 0 1 0-56.59999969l141.43999969-141.40000031a40.00000031 40.00000031 0 1 1 56.56000031 56.56000031l-141.40000031 141.43999969a40.00000031 40.00000031 0 0 1-56.59999969 0z m-28.27999969 28.27999969a79.99999969 79.99999969 0 0 0 113.16 0l141.39999938-141.43999969a79.99999969 79.99999969 0 1 0-113.11999969-113.11999969l-141.43999969 141.39999938a79.99999969 79.99999969 0 0 0 0 113.16zM632 235.72000031000005l28.32 28.27999969 65.83999969-65.83999969-28.27999969-28.28000062z"  horiz-adv-x="1024" />

    
    <glyph glyph-name="ziliao" unicode="&#58911;" d="M902.58068943 636.98976526c-4.4384171-4.4384171-6.65762506-8.87683421-6.65762506-15.53445927 0-6.65762506 2.21920795-11.09604215 6.65762506-15.53445926 4.4384171-4.4384171 8.87683421-6.65762506 15.53445925-6.65762504 6.65762506 0 11.09604215 2.21920795 15.53445927 6.65762504 4.4384171 4.4384171 6.65762506 8.87683421 6.65762626 15.53445926 0 6.65762506-2.21920795 11.09604215-6.65762626 15.53445927-8.87683421 8.87683421-24.41129347 8.87683421-31.06891852 0zM267.88706896 31.145854139999983h-130.93329913c-17.75366721 0-31.06891852 8.87683421-31.06891851 17.7536672V719.10047866c0 8.87683421 13.31525132 17.75366721 31.06891851 17.7536672h725.68116808c17.75366721 0 31.06891852-8.87683421 31.06891853-17.7536672v-26.63050142c0-13.31525132 8.87683421-22.19208431 22.19208431-22.19208552s22.19208431 8.87683421 22.19208431 22.19208552V719.10047866c0 33.28812646-33.28812646 62.13783703-75.45308715 62.13783703H136.95376983c-42.16496067 0-75.45308835-28.84971057-75.45308835-62.13783703v-670.20095732c0-33.28812646 33.28812646-62.13783703 75.45308835-62.13783703H267.88706896c13.31525132 0 22.19208431 8.87683421 22.19208431 22.19208552s-8.87683421 22.19208431-22.19208431 22.19208431zM192.43398061 594.82480458c-13.31525132 0-22.19208431-8.87683421-22.19208431-22.19208553s8.87683421-22.19208431 22.19208431-22.19208431h261.86659945c13.31525132 0 22.19208431 8.87683421 22.19208431 22.19208431s-8.87683421 22.19208431-22.19208431 22.19208553H192.43398061zM345.55936526 399.53445925h-150.90617549c-13.31525132 0-22.19208431-8.87683421-22.19208552-22.19208431s8.87683421-22.19208431 22.19208552-22.19208551h150.90617549c13.31525132 0 22.19208431 8.87683421 22.19208431 22.19208551s-11.09604215 22.19208431-22.19208431 22.19208431zM345.55936526 202.02490598999998h-150.90617549c-13.31525132 0-22.19208431-8.87683421-22.19208552-22.1920843s8.87683421-22.19208431 22.19208552-22.19208553h150.90617549c13.31525132 0 22.19208431 8.87683421 22.19208431 22.19208553s-11.09604215 22.19208431-22.19208431 22.1920843zM902.58068943 377.34237494c0 119.83725697-97.64517266 219.70163758-219.70163758 219.70163758-119.83725697 0-219.70163758-97.64517266-219.70163757-219.70163758 0-62.13783703 26.63050141-122.05646612 73.23387919-162.00221884 8.87683421-8.87683421 22.19208431-6.65762506 31.06891852 2.21920916 8.87683421 8.87683421 6.65762506 22.19208431-2.21920916 31.06891851-37.72654356 33.28812646-57.69941994 79.89150425-57.69941993 128.71409117 0 95.4259635 77.6722963 175.31746896 175.31746895 175.31746896s175.31746896-77.6722963 175.31746896-175.31746896-77.6722963-175.31746896-175.31746896-175.31746895c-119.83725697 0-230.79768095-71.01467124-281.83947461-179.75588605-4.4384171-11.09604215 0-24.41129347 11.09604215-28.84970937 2.21920795-2.21920795 6.65762506-2.21920795 8.87683299-2.21920916 8.87683421 0 15.53445925 4.4384171 19.97287638 13.31525132 44.38416983 93.20675555 139.81013333 153.12538465 241.89372309 153.12538343 122.05646612 0 219.70163758 97.64517266 219.70163758 219.70163878zM966.93773563 22.26901994000002c-26.63050141 57.69941994-71.01467124 104.30279771-126.49488325 137.59092538-11.09604215 6.65762506-24.41129347 2.21920795-31.0689185-8.87683421-6.65762506-11.09604215-2.21920795-24.41129347 8.87683419-31.06891852 46.60337778-26.63050141 84.32992134-68.79546209 108.74121483-117.61804903 4.4384171-8.87683421 11.09604215-13.31525132 19.97287635-13.31525009 2.21920795 0 6.65762506 0 8.87683422 2.21920794 11.09604215 6.65762506 15.53445925 19.97287636 11.09604216 31.06891853zM809.37393388 339.61583017c4.4384171 11.09604215-4.4384171 24.41129347-15.53445927 26.63050262-11.09604215 4.4384171-24.41129347-4.4384171-26.63050142-15.53445925-11.09604215-35.50733563-44.38416983-62.13783703-82.11071339-62.13783704-37.72654356 0-71.01467124 24.41129347-82.11071218 62.13783704-4.4384171 11.09604215-15.53445925 17.75366721-26.63050264 15.53445925-11.09604215-4.4384171-17.75366721-15.53445925-15.53445926-26.63050262 15.53445925-55.48021199 66.57625414-93.20675555 124.27567408-93.20675556 55.48021199 0 106.52200687 39.94575273 124.27567408 93.20675556z"  horiz-adv-x="1024" />

    
    <glyph glyph-name="zhuye-off" unicode="&#59636;" d="M965.632 492.032c-2.048 2.048-207.872 182.784-268.8 241.664-73.216 71.68-135.658667 86.528-174.592 86.528h-20.992c-38.912 0-101.376-14.848-174.592-86.528-60.416-59.392-266.24-240.128-268.288-241.664a20.906667 20.906667 0 0 1-2.048-29.184 20.906667 20.906667 0 0 1 29.184-2.048c2.048 2.048 15.872 13.824 36.352 32.256v-412.16c0-73.237333 60.928-133.12 135.68-133.12h508.928c74.752 0 135.68 59.904 135.68 133.12v412.16c20.48-17.92 34.304-30.208 36.352-32.256 4.074667-3.584 8.704-5.12 13.312-5.12 5.632 0 11.264 2.56 15.36 7.168 8.213333 8.704 7.168 21.504-1.536 29.184zM361.344-52.224000000000046l0.64 294.912c0 17.386667 14.848 31.744 32.768 31.744h235.52c17.92 0 32.768-14.357333 32.768-31.744l-0.384-294.912H361.344z m499.84 581.12v-448c0-50.688-42.496-92.138667-94.72-92.138667h-61.952V242.688c0 39.936-33.28 72.704-73.706667 72.704H395.264c-40.96 0-73.728-32.768-73.728-72.704v-253.930667h-64c-52.224 0-94.72 41.450667-94.72 92.138667V529.408c66.048 58.368 155.136 138.24 193.024 175.104 66.56 65.024 120.32 74.752 145.92 74.752h20.992c25.6 0 78.848-9.728 145.92-74.752 37.376-36.864 126.976-116.736 192.512-175.616z"  horiz-adv-x="1024" />

    
    <glyph glyph-name="zhuye-on" unicode="&#59637;" d="M965.632 492.032c-2.048 2.048-207.872 182.784-268.8 241.664-73.216 71.68-135.658667 86.528-174.592 86.528h-20.992c-38.912 0-101.376-14.848-174.592-86.528-60.416-59.392-266.24-240.128-268.288-241.664a20.906667 20.906667 0 0 1-2.048-29.184 20.906667 20.906667 0 0 1 29.184-2.048c2.048 2.048 15.872 13.824 36.352 32.256v-412.16c0-73.237333 60.928-133.12 135.68-133.12h508.928c74.752 0 135.68 59.904 135.68 133.12v412.16c20.48-17.92 34.304-30.208 36.352-32.256 4.074667-3.584 8.704-5.12 13.312-5.12 5.632 0 11.264 2.56 15.36 7.168 8.213333 8.704 7.168 21.504-1.536 29.184zM361.344-52.224000000000046l0.64 294.912c0 17.386667 14.848 31.744 32.768 31.744h235.52c17.92 0 32.768-14.357333 32.768-31.744l-0.384-294.912H361.344z"  horiz-adv-x="1024" />

    
    <glyph glyph-name="sousuo-on" unicode="&#59638;" d="M412.0025 144C224.225 144 71.9975 296.22749999999996 71.9975 483.9975S224.225 824.0025 412.0025 824.0025C599.7725 824.0025 752 671.775 752 483.9975S599.7725 144 412.0025 144z m276.555 63.4425c31.2375 31.245 81.8925 31.26 113.145 0.0225l0.015-0.0225 141.405-141.4425c31.785-30.69 32.6625-81.3375 1.9725-113.115-30.6975-31.785-81.3375-32.6625-113.1225-1.9725a69.63 69.63 0 0 0-1.965 1.9725l-141.4425 141.405c-31.245 31.23-31.26 81.885-0.0225 113.13 0 0.0075 0.015 0.0075 0.015 0.0225zM632 235.71749999999997L660.3125 264l65.8425-65.8425-28.2825-28.275L632 235.71749999999997z"  horiz-adv-x="1024" />

    
    <glyph glyph-name="luntan-on" unicode="&#59639;" d="M381.3275 424.8075H169.7c-59.295 0-92.535 33.24-92.535 92.535V728.9625c0 59.295 48.24 92.535 107.535 92.535h196.62c59.295 0 92.535-33.24 92.535-92.535v-211.62c0.0075-59.295-33.24-92.535-92.5275-92.535zM858.815 424.8075H647.2025c-59.295 0-92.5425 33.24-92.5425 92.535V728.9625c0 59.295 33.2475 92.535 92.5425 92.535h211.6125c59.295 0 92.5425-33.24 92.5425-92.535v-211.62c0-59.295-33.2475-92.535-92.5425-92.535zM381.3275-52.27499999999998H169.7c-59.295 0-92.535 33.24-92.535 92.535V251.88c0 59.2875 33.24 92.535 92.535 92.535h211.62c59.295 0 92.535-33.2475 92.535-92.535v-211.62c0.0075-59.295-33.24-92.535-92.5275-92.535zM858.815-52.27499999999998H647.2025c-59.295 0-92.5425 33.24-92.5425 92.535V251.88c0 59.2875 33.2475 92.535 92.5425 92.535h211.6125c59.295 0 92.5425-33.2475 92.5425-92.535v-211.62c0-59.295-33.2475-92.535-92.5425-92.535z"  horiz-adv-x="1024" />

    
    <glyph glyph-name="wode-off" unicode="&#59641;" d="M704 566.848C704 686.634667 622.848 768 512 768s-192-81.365333-192-201.152C320 441.237333 407.146667 341.33333300000004 512 341.33333300000004s192 99.904 192 225.514667z m42.666667 0C746.666667 419.285333 642.176 298.66666699999996 512 298.66666699999996s-234.666667 120.618667-234.666667 268.181333C277.333333 714.4533329999999 381.824 810.666667 512 810.666667s234.666667-96.213333 234.666667-243.818667zM512.106667 256c408.96 0 404.864-256.512 404.864-256.512 3.093333-23.274667-13.482667-42.154667-37.098667-42.154667H144.32c-23.573333 0-41.088 19.136-37.077333 42.154667 0 0-4.096 256.512 404.864 256.512zM149.909333 0l0.064-3.861333-0.704-3.968c0.682667 3.882667-2.837333 7.829333-4.949333 7.829333H879.872c-2.154667 0-5.504-3.818667-5.205333-6.144l-0.426667 3.157333 0.064 3.157334c0 0.853333-0.128 3.349333-0.533333 7.125333a161.813333 161.813333 0 0 1-4.266667 23.082667 192.96 192.96 0 0 1-35.242667 71.104C780.330667 170.53866700000003 678.634667 213.33333300000004 512.106667 213.33333300000004c-166.549333 0-268.224-42.794667-322.176-111.850666a192.96 192.96 0 0 1-35.242667-71.104c-2.176-8.426667-3.541333-16.192-4.266667-23.082667a81.045333 81.045333 0 0 1-0.512-7.296z"  horiz-adv-x="1024" />

    


  </font>
</defs>
</svg>
